<svg xmlns="http://www.w3.org/2000/svg">
<defs>
<font
     id="EmbeddedFont_1"
     horiz-adv-x="2048"
     horiz-origin-x="0"
     horiz-origin-y="0"
     vert-origin-x="512"
     vert-origin-y="768"
     vert-adv-y="1024">
   <font-face
   font-family="Arial embedded"
   units-per-em="2048"
   font-weight="normal"
   font-style="normal"
   ascent="1852"
   descent="423"
   id="font-face10" />
   <missing-glyph
   horiz-adv-x="2048"
   d="M 0,0 L 2047,0 2047,2047 0,2047 0,0 Z"
   id="missing-glyph12" />
   <glyph
   unicode="P"
   horiz-adv-x="1139"
   d="M 158,0 L 158,1466 711,1466 C 808,1466 883,1461 934,1452 1006,1440 1066,1417 1115,1384 1164,1350 1203,1303 1233,1242 1262,1181 1277,1115 1277,1042 1277,917 1237,812 1158,726 1079,639 935,596 728,596 L 352,596 352,0 158,0 Z M 352,769 L 731,769 C 856,769 945,792 998,839 1051,886 1077,951 1077,1036 1077,1097 1062,1150 1031,1194 1000,1237 959,1266 908,1280 875,1289 815,1293 727,1293 L 352,1293 352,769 Z"
   id="glyph14" />
   <glyph
   unicode="O"
   horiz-adv-x="1430"
   d="M 99,714 C 99,957 164,1148 295,1286 426,1423 594,1492 801,1492 936,1492 1058,1460 1167,1395 1276,1330 1359,1240 1416,1125 1473,1009 1501,878 1501,731 1501,582 1471,449 1411,332 1351,215 1266,126 1156,66 1046,5 927,-25 800,-25 662,-25 539,8 430,75 321,142 239,233 183,348 127,463 99,585 99,714 Z M 299,711 C 299,534 347,395 442,294 537,192 656,141 799,141 945,141 1065,192 1160,295 1254,398 1301,543 1301,732 1301,851 1281,956 1241,1045 1200,1134 1141,1203 1064,1252 986,1301 899,1325 802,1325 665,1325 547,1278 448,1184 349,1089 299,932 299,711 Z"
   id="glyph16" />
   <glyph
   unicode="N"
   horiz-adv-x="1165"
   d="M 156,0 L 156,1466 355,1466 1125,315 1125,1466 1311,1466 1311,0 1112,0 342,1152 342,0 156,0 Z"
   id="glyph18" />
   <glyph
   unicode="M"
   horiz-adv-x="1404"
   d="M 152,0 L 152,1466 444,1466 791,428 C 823,331 846,259 861,211 878,264 904,343 939,446 L 1290,1466 1551,1466 1551,0 1364,0 1364,1227 938,0 763,0 339,1248 339,0 152,0 Z"
   id="glyph20" />
   <glyph
   unicode="L"
   horiz-adv-x="954"
   d="M 150,0 L 150,1466 344,1466 344,173 1066,173 1066,0 150,0 Z"
   id="glyph22" />
   <glyph
   unicode="K"
   horiz-adv-x="1218"
   d="M 150,0 L 150,1466 344,1466 344,739 1072,1466 1335,1466 720,872 1362,0 1106,0 584,742 344,508 344,0 150,0 Z"
   id="glyph24" />
   <glyph
   unicode="J"
   horiz-adv-x="821"
   d="M 59,416 L 234,440 C 239,328 260,251 297,210 334,169 386,148 452,148 501,148 543,159 578,182 613,204 638,234 651,273 664,311 671,372 671,456 L 671,1466 865,1466 865,467 C 865,344 850,249 821,182 791,115 744,63 680,28 615,-7 540,-25 453,-25 324,-25 226,12 158,86 89,160 56,270 59,416 Z"
   id="glyph26" />
   <glyph
   unicode="I"
   horiz-adv-x="213"
   d="M 191,0 L 191,1466 385,1466 385,0 191,0 Z"
   id="glyph28" />
   <glyph
   unicode="H"
   horiz-adv-x="1165"
   d="M 164,0 L 164,1466 358,1466 358,864 1120,864 1120,1466 1314,1466 1314,0 1120,0 1120,691 358,691 358,0 164,0 Z"
   id="glyph30" />
   <glyph
   unicode="G"
   horiz-adv-x="1377"
   d="M 844,575 L 844,747 1465,748 1465,204 C 1370,128 1271,71 1170,33 1069,-6 965,-25 858,-25 714,-25 583,6 466,68 348,129 259,218 199,335 139,452 109,582 109,726 109,869 139,1002 199,1126 258,1249 344,1341 456,1401 568,1461 697,1491 843,1491 949,1491 1045,1474 1131,1440 1216,1405 1283,1357 1332,1296 1381,1235 1418,1155 1443,1056 L 1268,1008 C 1246,1083 1219,1141 1186,1184 1153,1227 1107,1261 1046,1287 985,1312 918,1325 844,1325 755,1325 679,1312 614,1285 549,1258 497,1222 458,1178 418,1134 387,1086 365,1033 328,942 309,844 309,738 309,607 332,498 377,410 422,322 487,257 573,214 659,171 750,150 847,150 931,150 1013,166 1093,199 1173,231 1234,265 1275,302 L 1275,575 844,575 Z"
   id="glyph32" />
   <glyph
   unicode="F"
   horiz-adv-x="1006"
   d="M 168,0 L 168,1466 1157,1466 1157,1293 362,1293 362,839 1050,839 1050,666 362,666 362,0 168,0 Z"
   id="glyph34" />
   <glyph
   unicode="E"
   horiz-adv-x="1086"
   d="M 162,0 L 162,1466 1222,1466 1222,1293 356,1293 356,844 1167,844 1167,672 356,672 356,173 1256,173 1256,0 162,0 Z"
   id="glyph36" />
   <glyph
   unicode="D"
   horiz-adv-x="1218"
   d="M 158,0 L 158,1466 663,1466 C 777,1466 864,1459 924,1445 1008,1426 1080,1391 1139,1340 1216,1275 1274,1191 1313,1090 1351,988 1370,872 1370,741 1370,630 1357,531 1331,445 1305,359 1272,288 1231,232 1190,175 1146,131 1098,99 1049,66 991,42 923,25 854,8 776,0 687,0 L 158,0 Z M 352,173 L 665,173 C 762,173 838,182 893,200 948,218 991,243 1024,276 1070,322 1106,384 1132,462 1157,539 1170,633 1170,744 1170,897 1145,1015 1095,1098 1044,1180 983,1235 911,1263 859,1283 775,1293 660,1293 L 352,1293 352,173 Z"
   id="glyph38" />
   <glyph
   unicode="C"
   horiz-adv-x="1324"
   d="M 1204,514 L 1398,465 C 1357,306 1284,184 1179,101 1073,17 944,-25 791,-25 633,-25 505,7 406,72 307,136 231,229 180,351 128,473 102,604 102,744 102,897 131,1030 190,1144 248,1257 331,1344 439,1403 546,1462 665,1491 794,1491 941,1491 1064,1454 1164,1379 1264,1304 1334,1199 1373,1064 L 1182,1019 C 1148,1126 1099,1203 1034,1252 969,1301 888,1325 790,1325 677,1325 583,1298 508,1244 432,1190 379,1118 348,1027 317,936 302,842 302,745 302,620 320,512 357,419 393,326 449,256 526,210 603,164 686,141 775,141 884,141 976,172 1051,235 1126,298 1177,391 1204,514 Z"
   id="glyph40" />
   <glyph
   unicode="B"
   horiz-adv-x="1113"
   d="M 150,0 L 150,1466 700,1466 C 812,1466 902,1451 970,1422 1037,1392 1090,1346 1129,1285 1167,1223 1186,1158 1186,1091 1186,1028 1169,969 1135,914 1101,859 1050,814 981,780 1070,754 1138,710 1186,647 1233,584 1257,510 1257,425 1257,356 1243,293 1214,234 1185,175 1149,129 1106,97 1063,65 1010,41 946,25 881,8 802,0 709,0 L 150,0 Z M 344,850 L 661,850 C 747,850 809,856 846,867 895,882 933,906 958,940 983,974 995,1017 995,1068 995,1117 983,1160 960,1197 937,1234 903,1259 860,1273 817,1286 742,1293 637,1293 L 344,1293 344,850 Z M 344,173 L 709,173 C 772,173 816,175 841,180 886,188 923,201 953,220 983,239 1008,266 1027,302 1046,337 1056,378 1056,425 1056,480 1042,527 1014,568 986,608 947,636 898,653 848,669 776,677 683,677 L 344,677 344,173 Z"
   id="glyph42" />
   <glyph
   unicode="A"
   horiz-adv-x="1403"
   d="M -3,0 L 560,1466 769,1466 1369,0 1148,0 977,444 364,444 203,0 -3,0 Z M 420,602 L 917,602 764,1008 C 717,1131 683,1233 660,1312 641,1218 615,1125 581,1032 L 420,602 Z"
   id="glyph44" />
   <glyph
   unicode="9"
   horiz-adv-x="980"
   d="M 112,339 L 285,355 C 300,274 328,215 369,178 410,141 463,123 528,123 583,123 632,136 674,161 715,186 749,220 776,263 803,305 825,362 843,434 861,506 870,579 870,654 870,662 870,674 869,690 833,633 784,586 722,551 659,515 592,497 519,497 398,497 295,541 211,629 127,717 85,833 85,977 85,1126 129,1245 217,1336 304,1427 414,1472 546,1472 641,1472 729,1446 808,1395 887,1344 947,1271 988,1176 1029,1081 1049,943 1049,763 1049,576 1029,427 988,316 947,205 887,120 807,62 726,4 632,-25 524,-25 409,-25 316,7 243,71 170,134 127,224 112,339 Z M 849,986 C 849,1089 822,1171 767,1232 712,1293 645,1323 568,1323 488,1323 418,1290 359,1225 300,1160 270,1075 270,971 270,878 298,802 355,744 411,685 480,656 563,656 646,656 715,685 769,744 822,802 849,883 849,986 Z"
   id="glyph46" />
   <glyph
   unicode="6"
   horiz-adv-x="1006"
   d="M 1019,1107 L 840,1093 C 824,1164 801,1215 772,1247 723,1298 663,1324 592,1324 535,1324 484,1308 441,1276 384,1235 340,1174 307,1095 274,1016 257,903 256,756 299,822 352,871 415,903 478,935 543,951 612,951 732,951 834,907 919,819 1003,730 1045,616 1045,476 1045,384 1025,299 986,220 946,141 891,80 822,38 753,-4 674,-25 586,-25 436,-25 314,30 219,141 124,251 77,433 77,686 77,969 129,1175 234,1304 325,1416 448,1472 603,1472 718,1472 813,1440 887,1375 960,1310 1004,1221 1019,1107 Z M 284,475 C 284,413 297,354 324,297 350,240 387,197 434,168 481,138 531,123 583,123 659,123 724,154 779,215 834,276 861,360 861,465 861,566 834,646 780,705 726,763 658,792 576,792 495,792 426,763 369,705 312,646 284,570 284,475 Z"
   id="glyph48" />
   <glyph
   unicode="1"
   horiz-adv-x="556"
   d="M 763,0 L 583,0 583,1147 C 540,1106 483,1064 413,1023 342,982 279,951 223,930 L 223,1104 C 324,1151 412,1209 487,1276 562,1343 616,1409 647,1472 L 763,1472 763,0 Z"
   id="glyph50" />
   <glyph
   unicode="0"
   horiz-adv-x="980"
   d="M 85,723 C 85,896 103,1036 139,1142 174,1247 227,1329 298,1386 368,1443 456,1472 563,1472 642,1472 711,1456 770,1425 829,1393 878,1347 917,1288 956,1228 986,1155 1008,1070 1030,984 1041,868 1041,723 1041,551 1023,412 988,307 953,201 900,119 830,62 759,4 670,-25 563,-25 422,-25 311,26 230,127 133,249 85,448 85,723 Z M 270,723 C 270,482 298,322 355,243 411,163 480,123 563,123 646,123 715,163 772,243 828,323 856,483 856,723 856,964 828,1125 772,1204 715,1283 645,1323 561,1323 478,1323 412,1288 363,1218 301,1129 270,964 270,723 Z"
   id="glyph52" />
  </font></defs>
 <defs
   id="defs142"><font
     id="EmbeddedFont_2"
     horiz-adv-x="2048"
     horiz-origin-x="0"
     horiz-origin-y="0"
     vert-origin-x="512"
     vert-origin-y="768"
     vert-adv-y="1024">
   <font-face
   font-family="Arial Unicode MS embedded"
   units-per-em="2048"
   font-weight="normal"
   font-style="normal"
   ascent="1852"
   descent="423"
   id="font-face57" />
   <missing-glyph
   horiz-adv-x="2048"
   d="M 0,0 L 2047,0 2047,2047 0,2047 0,0 Z"
   id="missing-glyph59" />
   <glyph
   unicode="”"
   horiz-adv-x="557"
   d="M 87,1272 L 87,1481 280,1481 280,1316 C 280,1227 270,1162 249,1123 220,1069 176,1028 115,1001 L 71,1072 C 107,1087 134,1110 152,1142 169,1173 179,1217 181,1272 L 87,1272 Z M 397,1272 L 397,1481 590,1481 590,1316 C 590,1227 580,1162 559,1123 530,1069 486,1028 425,1001 L 381,1072 C 417,1087 444,1110 462,1142 479,1173 489,1217 491,1272 L 397,1272 Z"
   id="glyph61" />
   <glyph
   unicode="y"
   horiz-adv-x="954"
   d="M 127,-409 L 107,-240 C 146,-251 181,-256 210,-256 250,-256 282,-249 306,-236 330,-223 350,-204 365,-180 376,-162 395,-117 420,-46 423,-36 429,-21 436,-2 L 33,1062 227,1062 448,447 C 477,369 502,287 525,201 546,284 570,364 599,443 L 826,1062 1006,1062 602,-18 C 559,-135 525,-215 501,-259 469,-318 432,-362 391,-389 350,-417 300,-431 243,-431 208,-431 170,-424 127,-409 Z"
   id="glyph63" />
   <glyph
   unicode="u"
   horiz-adv-x="874"
   d="M 831,0 L 831,156 C 748,36 636,-24 494,-24 431,-24 373,-12 319,12 264,36 224,66 198,103 171,139 153,183 142,236 135,271 131,327 131,404 L 131,1062 311,1062 311,473 C 311,379 315,316 322,283 333,236 357,199 394,172 431,145 476,131 530,131 584,131 635,145 682,173 729,200 763,238 783,286 802,333 812,402 812,493 L 812,1062 992,1062 992,0 831,0 Z"
   id="glyph65" />
   <glyph
   unicode="r"
   horiz-adv-x="583"
   d="M 133,0 L 133,1062 295,1062 295,901 C 336,976 375,1026 410,1050 445,1074 483,1086 525,1086 586,1086 647,1067 710,1028 L 648,861 C 604,887 560,900 516,900 477,900 441,888 410,865 379,841 356,808 343,766 323,702 313,632 313,556 L 313,0 133,0 Z"
   id="glyph67" />
   <glyph
   unicode="n"
   horiz-adv-x="874"
   d="M 135,0 L 135,1062 297,1062 297,911 C 375,1028 488,1086 635,1086 699,1086 758,1075 812,1052 865,1029 905,998 932,961 959,924 977,879 988,828 995,795 998,736 998,653 L 998,0 818,0 818,646 C 818,719 811,774 797,811 783,847 758,876 723,898 687,919 645,930 597,930 520,930 454,906 399,857 343,808 315,716 315,580 L 315,0 135,0 Z"
   id="glyph69" />
   <glyph
   unicode="m"
   horiz-adv-x="1483"
   d="M 135,0 L 135,1062 296,1062 296,913 C 329,965 374,1007 429,1039 484,1070 547,1086 618,1086 697,1086 761,1070 812,1037 862,1004 897,959 918,900 1002,1024 1111,1086 1246,1086 1351,1086 1432,1057 1489,999 1546,940 1574,850 1574,729 L 1574,0 1395,0 1395,669 C 1395,741 1389,793 1378,825 1366,856 1345,882 1314,901 1283,920 1247,930 1206,930 1131,930 1069,905 1020,856 971,806 946,726 946,617 L 946,0 766,0 766,690 C 766,770 751,830 722,870 693,910 645,930 578,930 527,930 481,917 438,890 395,863 363,824 344,773 325,722 315,648 315,551 L 315,0 135,0 Z"
   id="glyph71" />
   <glyph
   unicode="a"
   horiz-adv-x="1006"
   d="M 828,131 C 761,74 697,34 636,11 574,-12 508,-24 437,-24 320,-24 231,5 168,62 105,119 74,191 74,280 74,332 86,380 110,423 133,466 164,500 203,526 241,552 284,572 332,585 367,594 421,603 492,612 637,629 744,650 813,674 814,699 814,714 814,721 814,794 797,846 763,876 717,917 649,937 558,937 473,937 411,922 371,893 330,863 300,810 281,735 L 105,759 C 121,834 147,895 184,942 221,988 274,1024 343,1049 412,1074 493,1086 584,1086 675,1086 748,1075 805,1054 862,1033 903,1006 930,974 957,941 975,900 986,851 992,820 995,765 995,685 L 995,445 C 995,278 999,172 1007,128 1014,83 1029,41 1052,0 L 864,0 C 845,37 833,81 828,131 Z M 813,533 C 748,506 650,484 519,465 445,454 393,442 362,429 331,416 308,396 291,371 274,345 266,316 266,285 266,237 284,197 321,165 357,133 410,117 480,117 549,117 611,132 665,163 719,193 759,234 784,287 803,328 813,388 813,467 L 813,533 Z"
   id="glyph73" />
   <glyph
   unicode="U"
   horiz-adv-x="1165"
   d="M 1120,1466 L 1314,1466 1314,619 C 1314,472 1297,355 1264,268 1231,181 1171,111 1084,57 997,2 882,-25 741,-25 604,-25 491,-1 404,46 317,93 254,162 217,252 180,341 161,464 161,619 L 161,1466 355,1466 355,620 C 355,493 367,399 391,339 414,278 455,232 513,199 570,166 641,150 724,150 867,150 968,182 1029,247 1090,312 1120,436 1120,620 L 1120,1466 Z"
   id="glyph75" />
   <glyph
   unicode="R"
   horiz-adv-x="1297"
   d="M 161,0 L 161,1466 811,1466 C 942,1466 1041,1453 1109,1427 1177,1400 1231,1354 1272,1287 1313,1220 1333,1147 1333,1066 1333,962 1299,874 1232,803 1165,732 1061,686 920,667 971,642 1010,618 1037,594 1094,542 1147,477 1198,399 L 1453,0 1209,0 1015,305 C 958,393 912,460 875,507 838,554 806,586 777,605 748,624 718,637 688,644 666,649 630,651 580,651 L 355,651 355,0 161,0 Z M 355,819 L 772,819 C 861,819 930,828 980,847 1030,865 1068,894 1094,935 1120,975 1133,1019 1133,1066 1133,1135 1108,1192 1058,1237 1007,1282 928,1304 819,1304 L 355,1304 355,819 Z"
   id="glyph77" />
   <glyph
   unicode="P"
   horiz-adv-x="1139"
   d="M 158,0 L 158,1466 711,1466 C 808,1466 883,1461 934,1452 1006,1440 1066,1417 1115,1384 1164,1350 1203,1303 1233,1242 1262,1181 1277,1115 1277,1042 1277,917 1237,812 1158,726 1079,639 935,596 728,596 L 352,596 352,0 158,0 Z M 352,769 L 731,769 C 856,769 945,792 998,839 1051,886 1077,951 1077,1036 1077,1097 1062,1150 1031,1194 1000,1237 959,1266 908,1280 875,1289 815,1293 727,1293 L 352,1293 352,769 Z"
   id="glyph79" />
   <glyph
   unicode="O"
   horiz-adv-x="1430"
   d="M 99,714 C 99,957 164,1148 295,1286 426,1423 594,1492 801,1492 936,1492 1058,1460 1167,1395 1276,1330 1359,1240 1416,1125 1473,1009 1501,878 1501,731 1501,582 1471,449 1411,332 1351,215 1266,126 1156,66 1046,5 927,-25 800,-25 662,-25 539,8 430,75 321,142 239,233 183,348 127,463 99,585 99,714 Z M 299,711 C 299,534 347,395 442,294 537,192 656,141 799,141 945,141 1065,192 1160,295 1254,398 1301,543 1301,732 1301,851 1281,956 1241,1045 1200,1134 1141,1203 1064,1252 986,1301 899,1325 802,1325 665,1325 547,1278 448,1184 349,1089 299,932 299,711 Z"
   id="glyph81" />
   <glyph
   unicode="N"
   horiz-adv-x="1165"
   d="M 156,0 L 156,1466 355,1466 1125,315 1125,1466 1311,1466 1311,0 1112,0 342,1152 342,0 156,0 Z"
   id="glyph83" />
   <glyph
   unicode="M"
   horiz-adv-x="1404"
   d="M 152,0 L 152,1466 444,1466 791,428 C 823,331 846,259 861,211 878,264 904,343 939,446 L 1290,1466 1551,1466 1551,0 1364,0 1364,1227 938,0 763,0 339,1248 339,0 152,0 Z"
   id="glyph85" />
   <glyph
   unicode="L"
   horiz-adv-x="954"
   d="M 150,0 L 150,1466 344,1466 344,173 1066,173 1066,0 150,0 Z"
   id="glyph87" />
   <glyph
   unicode="J"
   horiz-adv-x="821"
   d="M 59,416 L 234,440 C 239,328 260,251 297,210 334,169 386,148 452,148 501,148 543,159 578,182 613,204 638,234 651,273 664,311 671,372 671,456 L 671,1466 865,1466 865,467 C 865,344 850,249 821,182 791,115 744,63 680,28 615,-7 540,-25 453,-25 324,-25 226,12 158,86 89,160 56,270 59,416 Z"
   id="glyph89" />
   <glyph
   unicode="I"
   horiz-adv-x="213"
   d="M 191,0 L 191,1466 385,1466 385,0 191,0 Z"
   id="glyph91" />
   <glyph
   unicode="G"
   horiz-adv-x="1377"
   d="M 844,575 L 844,747 1465,748 1465,204 C 1370,128 1271,71 1170,33 1069,-6 965,-25 858,-25 714,-25 583,6 466,68 348,129 259,218 199,335 139,452 109,582 109,726 109,869 139,1002 199,1126 258,1249 344,1341 456,1401 568,1461 697,1491 843,1491 949,1491 1045,1474 1131,1440 1216,1405 1283,1357 1332,1296 1381,1235 1418,1155 1443,1056 L 1268,1008 C 1246,1083 1219,1141 1186,1184 1153,1227 1107,1261 1046,1287 985,1312 918,1325 844,1325 755,1325 679,1312 614,1285 549,1258 497,1222 458,1178 418,1134 387,1086 365,1033 328,942 309,844 309,738 309,607 332,498 377,410 422,322 487,257 573,214 659,171 750,150 847,150 931,150 1013,166 1093,199 1173,231 1234,265 1275,302 L 1275,575 844,575 Z"
   id="glyph93" />
   <glyph
   unicode="F"
   horiz-adv-x="1006"
   d="M 168,0 L 168,1466 1157,1466 1157,1293 362,1293 362,839 1050,839 1050,666 362,666 362,0 168,0 Z"
   id="glyph95" />
   <glyph
   unicode="E"
   horiz-adv-x="1086"
   d="M 162,0 L 162,1466 1222,1466 1222,1293 356,1293 356,844 1167,844 1167,672 356,672 356,173 1256,173 1256,0 162,0 Z"
   id="glyph97" />
   <glyph
   unicode="D"
   horiz-adv-x="1218"
   d="M 158,0 L 158,1466 663,1466 C 777,1466 864,1459 924,1445 1008,1426 1080,1391 1139,1340 1216,1275 1274,1191 1313,1090 1351,988 1370,872 1370,741 1370,630 1357,531 1331,445 1305,359 1272,288 1231,232 1190,175 1146,131 1098,99 1049,66 991,42 923,25 854,8 776,0 687,0 L 158,0 Z M 352,173 L 665,173 C 762,173 838,182 893,200 948,218 991,243 1024,276 1070,322 1106,384 1132,462 1157,539 1170,633 1170,744 1170,897 1145,1015 1095,1098 1044,1180 983,1235 911,1263 859,1283 775,1293 660,1293 L 352,1293 352,173 Z"
   id="glyph99" />
   <glyph
   unicode="B"
   horiz-adv-x="1113"
   d="M 150,0 L 150,1466 700,1466 C 812,1466 902,1451 970,1422 1037,1392 1090,1346 1129,1285 1167,1223 1186,1158 1186,1091 1186,1028 1169,969 1135,914 1101,859 1050,814 981,780 1070,754 1138,710 1186,647 1233,584 1257,510 1257,425 1257,356 1243,293 1214,234 1185,175 1149,129 1106,97 1063,65 1010,41 946,25 881,8 802,0 709,0 L 150,0 Z M 344,850 L 661,850 C 747,850 809,856 846,867 895,882 933,906 958,940 983,974 995,1017 995,1068 995,1117 983,1160 960,1197 937,1234 903,1259 860,1273 817,1286 742,1293 637,1293 L 344,1293 344,850 Z M 344,173 L 709,173 C 772,173 816,175 841,180 886,188 923,201 953,220 983,239 1008,266 1027,302 1046,337 1056,378 1056,425 1056,480 1042,527 1014,568 986,608 947,636 898,653 848,669 776,677 683,677 L 344,677 344,173 Z"
   id="glyph101" />
   <glyph
   unicode="A"
   horiz-adv-x="1403"
   d="M -3,0 L 560,1466 769,1466 1369,0 1148,0 977,444 364,444 203,0 -3,0 Z M 420,602 L 917,602 764,1008 C 717,1131 683,1233 660,1312 641,1218 615,1125 581,1032 L 420,602 Z"
   id="glyph103" />
   <glyph
   unicode="9"
   horiz-adv-x="980"
   d="M 112,339 L 285,355 C 300,274 328,215 369,178 410,141 463,123 528,123 583,123 632,136 674,161 715,186 749,220 776,263 803,305 825,362 843,434 861,506 870,579 870,654 870,662 870,674 869,690 833,633 784,586 722,551 659,515 592,497 519,497 398,497 295,541 211,629 127,717 85,833 85,977 85,1126 129,1245 217,1336 304,1427 414,1472 546,1472 641,1472 729,1446 808,1395 887,1344 947,1271 988,1176 1029,1081 1049,943 1049,763 1049,576 1029,427 988,316 947,205 887,120 807,62 726,4 632,-25 524,-25 409,-25 316,7 243,71 170,134 127,224 112,339 Z M 849,986 C 849,1089 822,1171 767,1232 712,1293 645,1323 568,1323 488,1323 418,1290 359,1225 300,1160 270,1075 270,971 270,878 298,802 355,744 411,685 480,656 563,656 646,656 715,685 769,744 822,802 849,883 849,986 Z"
   id="glyph105" />
   <glyph
   unicode="8"
   horiz-adv-x="980"
   d="M 362,795 C 287,822 232,861 196,912 160,963 142,1023 142,1094 142,1201 180,1290 257,1363 334,1436 436,1472 563,1472 691,1472 794,1435 872,1361 950,1286 989,1196 989,1089 989,1021 971,962 936,912 900,861 846,822 773,795 863,766 932,718 979,653 1026,588 1049,510 1049,419 1049,294 1005,188 916,103 827,18 711,-25 566,-25 421,-25 305,18 216,104 127,189 83,296 83,424 83,519 107,599 156,664 204,728 273,772 362,795 Z M 326,1100 C 326,1031 348,974 393,930 438,886 496,864 567,864 636,864 693,886 738,930 782,973 804,1027 804,1090 804,1156 781,1212 736,1257 690,1302 633,1324 565,1324 496,1324 439,1302 394,1258 349,1214 326,1161 326,1100 Z M 268,423 C 268,372 280,322 305,274 329,226 365,189 413,163 461,136 513,123 568,123 654,123 725,151 781,206 837,261 865,332 865,417 865,504 836,575 779,632 721,689 649,717 562,717 477,717 407,689 352,633 296,577 268,507 268,423 Z"
   id="glyph107" />
   <glyph
   unicode="7"
   horiz-adv-x="980"
   d="M 97,1274 L 97,1447 1046,1447 1046,1307 C 953,1208 860,1076 769,911 677,746 606,577 556,403 520,280 497,146 487,0 L 302,0 C 304,115 327,255 370,418 413,581 476,739 557,891 638,1042 724,1170 815,1274 L 97,1274 Z"
   id="glyph109" />
   <glyph
   unicode="6"
   horiz-adv-x="1006"
   d="M 1019,1107 L 840,1093 C 824,1164 801,1215 772,1247 723,1298 663,1324 592,1324 535,1324 484,1308 441,1276 384,1235 340,1174 307,1095 274,1016 257,903 256,756 299,822 352,871 415,903 478,935 543,951 612,951 732,951 834,907 919,819 1003,730 1045,616 1045,476 1045,384 1025,299 986,220 946,141 891,80 822,38 753,-4 674,-25 586,-25 436,-25 314,30 219,141 124,251 77,433 77,686 77,969 129,1175 234,1304 325,1416 448,1472 603,1472 718,1472 813,1440 887,1375 960,1310 1004,1221 1019,1107 Z M 284,475 C 284,413 297,354 324,297 350,240 387,197 434,168 481,138 531,123 583,123 659,123 724,154 779,215 834,276 861,360 861,465 861,566 834,646 780,705 726,763 658,792 576,792 495,792 426,763 369,705 312,646 284,570 284,475 Z"
   id="glyph111" />
   <glyph
   unicode="5"
   horiz-adv-x="980"
   d="M 85,384 L 274,400 C 288,308 321,239 372,193 423,146 484,123 556,123 643,123 716,156 776,221 836,286 866,373 866,481 866,584 837,665 780,724 722,783 646,813 553,813 495,813 443,800 396,774 349,747 313,713 286,671 L 117,693 259,1446 988,1446 988,1274 403,1274 324,880 C 412,941 504,972 601,972 729,972 837,928 925,839 1013,750 1057,636 1057,497 1057,364 1018,250 941,153 847,34 719,-25 556,-25 423,-25 314,12 230,87 145,162 97,261 85,384 Z"
   id="glyph113" />
   <glyph
   unicode="4"
   horiz-adv-x="1033"
   d="M 662,0 L 662,351 26,351 26,516 695,1466 842,1466 842,516 1040,516 1040,351 842,351 842,0 662,0 Z M 662,516 L 662,1177 203,516 662,516 Z"
   id="glyph115" />
   <glyph
   unicode="3"
   horiz-adv-x="980"
   d="M 86,387 L 266,411 C 287,309 322,236 372,191 421,146 482,123 553,123 638,123 709,152 768,211 826,270 855,342 855,429 855,512 828,580 774,634 720,687 651,714 568,714 534,714 492,707 441,694 L 461,852 C 473,851 483,850 490,850 567,850 636,870 697,910 758,950 789,1012 789,1095 789,1161 767,1216 722,1259 677,1302 620,1324 549,1324 479,1324 421,1302 374,1258 327,1214 297,1148 284,1060 L 104,1092 C 126,1213 176,1306 254,1373 332,1439 429,1472 545,1472 625,1472 699,1455 766,1421 833,1386 885,1339 921,1280 956,1221 974,1158 974,1091 974,1028 957,970 923,918 889,866 839,825 772,794 859,774 926,733 974,670 1022,607 1046,528 1046,433 1046,305 999,197 906,108 813,19 695,-26 552,-26 423,-26 317,12 232,89 147,166 98,265 86,387 Z"
   id="glyph117" />
   <glyph
   unicode="2"
   horiz-adv-x="980"
   d="M 1031,173 L 1031,0 62,0 C 61,43 68,85 83,125 108,191 147,256 202,320 256,384 334,458 437,542 596,673 704,776 760,853 816,929 844,1001 844,1069 844,1140 819,1201 768,1250 717,1299 650,1323 568,1323 481,1323 412,1297 360,1245 308,1193 282,1121 281,1029 L 96,1048 C 109,1186 156,1291 239,1364 322,1436 433,1472 572,1472 713,1472 824,1433 906,1355 988,1277 1029,1180 1029,1065 1029,1006 1017,949 993,892 969,835 929,776 874,713 818,650 725,564 596,455 488,364 419,303 388,271 357,238 332,206 312,173 L 1031,173 Z"
   id="glyph119" />
   <glyph
   unicode="1"
   horiz-adv-x="556"
   d="M 763,0 L 583,0 583,1147 C 540,1106 483,1064 413,1023 342,982 279,951 223,930 L 223,1104 C 324,1151 412,1209 487,1276 562,1343 616,1409 647,1472 L 763,1472 763,0 Z"
   id="glyph121" />
   <glyph
   unicode="0"
   horiz-adv-x="980"
   d="M 85,723 C 85,896 103,1036 139,1142 174,1247 227,1329 298,1386 368,1443 456,1472 563,1472 642,1472 711,1456 770,1425 829,1393 878,1347 917,1288 956,1228 986,1155 1008,1070 1030,984 1041,868 1041,723 1041,551 1023,412 988,307 953,201 900,119 830,62 759,4 670,-25 563,-25 422,-25 311,26 230,127 133,249 85,448 85,723 Z M 270,723 C 270,482 298,322 355,243 411,163 480,123 563,123 646,123 715,163 772,243 828,323 856,483 856,723 856,964 828,1125 772,1204 715,1283 645,1323 561,1323 478,1323 412,1288 363,1218 301,1129 270,964 270,723 Z"
   id="glyph123" />
   <glyph
   unicode="/"
   horiz-adv-x="583"
   d="M 0,-25 L 425,1491 569,1491 145,-25 0,-25 Z"
   id="glyph125" />
   <glyph
   unicode="."
   horiz-adv-x="239"
   d="M 186,0 L 186,205 391,205 391,0 186,0 Z"
   id="glyph127" />
   <glyph
   unicode="-"
   horiz-adv-x="583"
   d="M 65,440 L 65,621 618,621 618,440 65,440 Z"
   id="glyph129" />
   <glyph
   unicode=","
   horiz-adv-x="239"
   d="M 182,0 L 182,205 387,205 387,0 C 387,-75 374,-136 347,-182 320,-229 278,-265 220,-290 L 170,-213 C 208,-196 236,-172 254,-139 272,-107 282,-61 284,0 L 182,0 Z"
   id="glyph131" />
   <glyph
   unicode="+"
   horiz-adv-x="980"
   d="M 513,237 L 513,639 114,639 114,807 513,807 513,1206 683,1206 683,807 1082,807 1082,639 683,639 683,237 513,237 Z"
   id="glyph133" />
   <glyph
   unicode=")"
   horiz-adv-x="504"
   d="M 253,-431 L 124,-431 C 323,-111 423,209 423,530 423,655 409,780 380,903 357,1003 326,1099 285,1191 259,1251 205,1351 124,1491 L 253,1491 C 378,1324 471,1156 531,987 582,842 608,690 608,531 608,351 574,177 505,9 436,-159 352,-306 253,-431 Z"
   id="glyph135" />
   <glyph
   unicode="("
   horiz-adv-x="504"
   d="M 479,-431 C 380,-306 296,-159 227,9 158,177 124,351 124,531 124,690 150,842 201,987 261,1156 354,1324 479,1491 L 608,1491 C 527,1352 474,1253 448,1194 407,1102 375,1006 352,906 323,781 309,656 309,530 309,209 409,-111 608,-431 L 479,-431 Z"
   id="glyph137" />
   <glyph
   unicode=" "
   horiz-adv-x="556"
   id="glyph139" />
  </font></defs>
 <defs
   id="defs153"><font
     id="EmbeddedFont_3"
     horiz-adv-x="2048"
     horiz-origin-x="0"
     horiz-origin-y="0"
     vert-origin-x="512"
     vert-origin-y="768"
     vert-adv-y="1024">
   <font-face
   font-family="Meiryo UI embedded"
   units-per-em="2048"
   font-weight="normal"
   font-style="normal"
   ascent="2170"
   descent="423"
   id="font-face144" />
   <missing-glyph
   horiz-adv-x="2048"
   d="M 0,0 L 2047,0 2047,2047 0,2047 0,0 Z"
   id="missing-glyph146" />
   <glyph
   unicode="約"
   horiz-adv-x="1827"
   d="M 430,-127 L 430,727 C 296,718 184,711 95,707 L 77,834 219,838 C 274,902 333,973 394,1052 299,1151 198,1249 91,1346 L 191,1436 C 198,1430 211,1419 228,1403 315,1516 382,1619 428,1712 L 565,1661 C 498,1554 414,1440 314,1321 L 476,1159 C 583,1302 659,1417 705,1505 L 847,1450 C 702,1238 545,1036 375,844 L 704,862 C 682,930 665,980 653,1012 L 772,1045 C 829,900 867,791 887,717 L 758,684 C 755,699 748,723 738,755 684,748 633,743 586,739 L 586,-127 430,-127 Z M 1884,774 C 1884,587 1877,429 1862,301 1847,172 1832,87 1815,46 1798,5 1767,-31 1722,-61 1677,-91 1624,-106 1565,-107 1506,-108 1415,-108 1292,-108 L 1271,32 C 1330,31 1382,31 1427,31 1495,31 1541,34 1565,39 1588,44 1610,56 1631,77 1652,98 1668,129 1681,170 1694,211 1704,292 1713,411 1721,530 1725,685 1725,876 L 1725,1329 1178,1329 C 1119,1174 1053,1044 979,939 L 856,999 C 991,1207 1083,1442 1132,1705 L 1290,1682 C 1279,1629 1256,1551 1220,1446 L 1884,1446 1884,774 Z M 1336,487 C 1236,749 1168,916 1132,987 L 1269,1039 C 1334,913 1404,747 1480,540 L 1336,487 Z M 795,141 L 728,565 866,581 933,162 795,141 Z M 198,53 L 68,78 C 122,242 152,409 158,579 L 304,569 C 273,315 238,143 198,53 Z"
   id="glyph148" />
   <glyph
   unicode="㎜"
   horiz-adv-x="1853"
   d="M 952,5 L 790,5 790,933 C 790,988 768,1015 723,1015 668,1015 628,975 602,894 L 602,5 440,5 440,939 C 440,958 433,975 419,990 405,1005 389,1013 371,1013 348,1013 325,1002 302,980 278,958 261,931 252,900 L 252,5 94,5 94,1136 252,1136 252,1043 C 290,1118 345,1156 416,1156 487,1156 534,1114 557,1031 610,1114 680,1156 768,1156 854,1156 910,1110 936,1017 947,978 952,913 952,820 L 952,5 Z M 1935,5 L 1772,5 1772,933 C 1772,988 1750,1015 1706,1015 1651,1015 1611,975 1585,894 L 1585,5 1425,5 1423,939 C 1423,958 1416,975 1402,990 1388,1005 1372,1013 1354,1013 1331,1013 1308,1002 1285,980 1261,958 1244,931 1235,900 L 1235,5 1077,5 1077,1136 1235,1136 1235,1043 C 1273,1118 1328,1156 1399,1156 1470,1156 1517,1114 1540,1031 1593,1114 1663,1156 1751,1156 1837,1156 1893,1110 1919,1017 1930,979 1935,919 1935,837 L 1935,5 Z"
   id="glyph150" />
  </font></defs>
 <defs
   id="defs208"><font
     id="EmbeddedFont_4"
     horiz-adv-x="2048"
     horiz-origin-x="0"
     horiz-origin-y="0"
     vert-origin-x="512"
     vert-origin-y="768"
     vert-adv-y="1024">
   <font-face
   font-family="Ｍ embedded"
   units-per-em="2048"
   font-weight="normal"
   font-style="normal"
   ascent="1746"
   descent="291"
   id="font-face155" />
   <missing-glyph
   horiz-adv-x="2048"
   d="M 0,0 L 2047,0 2047,2047 0,2047 0,0 Z"
   id="missing-glyph157" />
   <glyph
   unicode="）"
   horiz-adv-x="583"
   d="M 160,-112 C 336,27 456,165 520,304 584,443 616,589 616,744 616,899 584,1045 520,1184 456,1323 336,1459 160,1592 L 224,1672 C 400,1549 531,1408 616,1248 691,1109 728,941 728,744 728,547 691,379 616,240 531,80 400,-64 224,-192 L 160,-112 Z"
   id="glyph159" />
   <glyph
   unicode="（"
   horiz-adv-x="584"
   d="M 1880,1592 C 1704,1459 1584,1323 1520,1184 1456,1045 1424,899 1424,744 1424,589 1456,443 1520,304 1584,165 1704,27 1880,-112 L 1816,-192 C 1640,-64 1509,80 1424,240 1349,379 1312,547 1312,744 1312,941 1349,1109 1424,1248 1509,1408 1640,1549 1816,1672 L 1880,1592 Z"
   id="glyph161" />
   <glyph
   unicode="込"
   horiz-adv-x="1853"
   d="M 352,1560 C 475,1469 589,1365 696,1248 L 600,1144 C 499,1261 387,1368 264,1464 L 352,1560 Z M 1352,1536 C 1352,1195 1397,933 1488,752 1584,560 1717,411 1888,304 L 1800,176 C 1560,357 1395,600 1304,904 1208,589 1037,344 792,168 L 704,272 C 859,379 979,504 1064,648 1155,803 1219,965 1256,1136 1251,1195 1245,1288 1240,1416 L 840,1416 840,1536 1352,1536 Z M 568,816 L 568,232 C 632,168 712,117 808,80 877,53 952,40 1032,40 L 1928,40 1880,-80 1016,-80 C 941,-80 859,-64 768,-32 677,0 592,53 512,128 405,37 299,-51 192,-136 L 104,0 C 232,64 349,131 456,200 L 456,696 144,696 144,816 568,816 Z"
   id="glyph163" />
   <glyph
   unicode="穴"
   horiz-adv-x="1748"
   d="M 1272,952 C 1331,728 1413,536 1520,376 1621,227 1744,99 1888,-8 L 1776,-112 C 1627,21 1504,163 1408,312 1312,461 1227,659 1152,904 L 1272,952 Z M 1088,1616 C 1115,1611 1109,1595 1072,1568 L 1072,1328 1832,1328 1832,904 1720,904 1720,1224 320,1224 320,904 208,904 208,1328 960,1328 960,1632 1088,1616 Z M 888,888 C 909,872 899,856 856,840 787,605 701,413 600,264 483,88 371,-48 264,-144 L 152,-56 C 280,56 397,192 504,352 605,507 688,701 752,936 L 888,888 Z"
   id="glyph165" />
   <glyph
   unicode="差"
   horiz-adv-x="1827"
   d="M 1464,1608 C 1480,1603 1469,1589 1432,1568 1395,1504 1352,1437 1304,1368 L 1824,1368 1824,1264 1088,1264 1088,1064 1696,1064 1696,960 1088,960 1088,760 1912,760 1912,656 752,656 C 731,576 704,499 672,424 L 1696,424 1696,320 1208,320 1208,-16 1888,-16 1888,-120 464,-120 464,-16 1096,-16 1096,320 632,320 C 515,123 365,-32 184,-144 L 104,-40 C 237,35 347,125 432,232 528,349 597,491 640,656 L 160,656 160,760 976,760 976,960 368,960 368,1064 976,1064 976,1264 248,1264 248,1368 728,1368 C 691,1427 637,1488 568,1552 L 680,1616 C 739,1557 795,1491 848,1416 L 768,1368 1184,1368 C 1243,1464 1293,1555 1336,1640 L 1464,1608 Z"
   id="glyph167" />
   <glyph
   unicode="売"
   horiz-adv-x="1826"
   d="M 1320,664 C 1336,653 1328,637 1296,616 L 1296,32 C 1296,-5 1315,-24 1352,-24 L 1640,-24 C 1699,-24 1736,3 1752,56 L 1808,256 1936,184 1888,16 C 1877,-27 1853,-67 1816,-104 1789,-131 1744,-144 1680,-144 L 1328,-144 C 1221,-144 1168,-96 1168,0 L 1168,680 1320,664 Z M 1104,1640 C 1131,1629 1123,1613 1080,1592 L 1080,1416 1824,1416 1824,1312 1080,1312 1080,1104 1696,1104 1696,1000 352,1000 352,1104 952,1104 952,1312 224,1312 224,1416 952,1416 952,1656 1104,1640 Z M 856,648 C 872,637 864,621 832,600 L 832,448 C 832,267 781,125 680,24 573,-83 408,-152 184,-184 L 120,-56 C 339,-29 491,27 576,112 661,197 704,320 704,480 L 704,664 856,648 Z M 1848,880 L 1848,480 1720,480 1720,776 336,776 336,480 208,480 208,880 1848,880 Z"
   id="glyph169" />
   <glyph
   unicode="別"
   horiz-adv-x="1774"
   d="M 1024,1536 L 1024,840 912,840 912,920 648,920 632,656 1080,656 1072,232 C 1067,88 1040,-13 992,-72 949,-125 893,-152 824,-152 L 632,-152 608,-32 744,-32 C 829,-32 883,-16 904,16 931,53 949,128 960,240 L 968,552 616,552 C 605,424 563,296 488,168 403,24 301,-88 184,-168 L 96,-72 C 256,45 368,176 432,320 496,464 528,664 528,920 L 368,920 368,816 256,816 256,1536 1024,1536 Z M 1840,1560 C 1856,1549 1848,1533 1816,1512 L 1816,-24 C 1816,-109 1781,-152 1712,-152 L 1480,-152 1448,-32 1656,-32 C 1677,-32 1688,-21 1688,0 L 1688,1576 1840,1560 Z M 1448,1368 C 1464,1357 1456,1341 1424,1320 L 1424,216 1296,216 1296,1384 1448,1368 Z M 368,1024 L 912,1024 912,1432 368,1432 368,1024 Z"
   id="glyph171" />
   <glyph
   unicode="ン"
   horiz-adv-x="1430"
   d="M 1808,984 C 1696,755 1576,576 1448,448 1219,219 901,75 496,16 485,-16 472,-24 456,-8 L 384,168 C 800,195 1117,317 1336,536 1480,680 1600,864 1696,1088 L 1808,984 Z M 488,1384 C 637,1299 779,1203 912,1096 L 808,968 C 680,1080 544,1179 400,1264 L 488,1384 Z"
   id="glyph173" />
   <glyph
   unicode="メ"
   horiz-adv-x="1271"
   d="M 1432,1424 C 1453,1413 1445,1400 1408,1384 1344,1139 1269,931 1184,760 1317,680 1443,595 1560,504 L 1472,376 C 1365,472 1248,557 1120,632 1051,520 955,403 832,280 757,205 624,101 432,-32 L 312,80 C 483,165 637,277 776,416 883,523 957,619 1000,704 856,795 707,875 552,944 L 624,1056 C 773,987 920,909 1064,824 1160,1016 1229,1237 1272,1488 L 1432,1424 Z"
   id="glyph175" />
   <glyph
   unicode="ト"
   horiz-adv-x="901"
   d="M 904,968 C 1149,877 1403,760 1664,616 L 1584,480 C 1349,619 1123,733 904,824 L 904,-72 768,-72 768,1536 920,1528 C 941,1517 936,1501 904,1480 L 904,968 Z"
   id="glyph177" />
   <glyph
   unicode="ッ"
   horiz-adv-x="1324"
   d="M 1664,1024 C 1685,1013 1677,1000 1640,984 1587,605 1480,336 1320,176 1165,21 968,-91 728,-160 L 624,-40 C 880,24 1075,123 1208,256 1373,421 1475,696 1512,1080 L 1664,1024 Z M 904,1096 C 984,979 1051,856 1104,728 L 984,664 C 931,797 864,923 784,1040 L 904,1096 Z M 496,992 C 581,864 648,739 696,616 L 576,552 C 523,691 456,821 376,944 L 496,992 Z"
   id="glyph179" />
   <glyph
   unicode="チ"
   horiz-adv-x="1589"
   d="M 1168,864 L 1824,864 1824,736 1168,736 C 1168,437 1093,213 944,64 875,-5 787,-67 680,-120 L 568,-8 C 685,35 784,96 864,176 976,288 1032,475 1032,736 L 240,736 240,864 1032,864 1032,1240 C 787,1213 587,1200 432,1200 L 384,1320 C 832,1336 1213,1384 1528,1464 L 1616,1344 C 1627,1323 1608,1317 1560,1328 1389,1296 1259,1275 1168,1264 L 1168,864 Z"
   id="glyph181" />
   <glyph
   unicode="タ"
   horiz-adv-x="1350"
   d="M 1544,392 L 1456,280 1264,432 C 1205,341 1141,261 1072,192 955,75 805,-29 624,-120 L 496,-16 C 704,75 867,179 984,296 1043,355 1099,424 1152,504 1019,600 880,685 736,760 L 808,872 C 963,792 1101,709 1224,624 1309,773 1376,949 1424,1152 L 800,1152 C 709,955 587,779 432,624 L 312,696 C 552,931 725,1232 832,1600 L 976,1544 C 997,1533 989,1520 952,1504 L 856,1280 1456,1280 1504,1304 1608,1224 C 1624,1208 1616,1195 1584,1184 1504,907 1421,696 1336,552 L 1544,392 Z"
   id="glyph183" />
   <glyph
   unicode="ア"
   horiz-adv-x="1562"
   d="M 1104,1064 C 1125,1053 1117,1035 1080,1008 L 1080,848 C 1080,533 989,285 808,104 744,40 669,-16 584,-64 L 472,48 C 584,107 664,160 712,208 867,363 944,571 944,832 L 944,1080 1104,1064 Z M 1808,1304 C 1824,1283 1811,1269 1768,1264 1597,1045 1405,853 1192,688 L 1088,784 C 1291,928 1456,1085 1584,1256 L 288,1256 288,1384 1672,1384 1720,1408 1808,1304 Z"
   id="glyph185" />
   <glyph
   unicode="り"
   horiz-adv-x="1007"
   d="M 1488,1512 C 1509,1501 1504,1485 1472,1464 1483,1299 1488,1061 1488,752 1488,453 1413,229 1264,80 1184,0 1077,-75 944,-144 L 832,-32 C 976,37 1083,107 1152,176 1285,309 1352,509 1352,776 1352,1075 1341,1325 1320,1528 L 1488,1512 Z M 752,1480 C 773,1469 768,1453 736,1432 693,1176 672,973 672,824 672,680 680,600 696,584 707,573 717,568 728,568 749,568 779,587 816,624 848,656 896,728 960,840 L 1048,728 C 989,627 941,557 904,520 835,451 771,416 712,416 675,416 640,432 608,464 565,507 544,629 544,832 544,981 563,1205 600,1504 L 752,1480 Z"
   id="glyph187" />
   <glyph
   unicode="む"
   horiz-adv-x="1720"
   d="M 800,1584 C 821,1573 816,1557 784,1536 L 784,1256 C 917,1267 1061,1283 1216,1304 L 1232,1168 C 1056,1157 907,1147 784,1136 L 784,760 C 795,723 800,691 800,664 800,600 784,531 752,456 725,392 712,323 712,248 712,157 723,101 744,80 776,48 843,32 944,32 L 1168,32 C 1317,32 1413,53 1456,96 1483,123 1496,171 1496,240 1496,304 1483,397 1456,520 L 1600,496 C 1616,400 1624,309 1624,224 1624,117 1600,40 1552,-8 1493,-67 1387,-96 1232,-96 L 928,-96 C 795,-96 704,-72 656,-24 613,19 592,83 592,168 L 592,280 C 560,253 517,240 464,240 400,240 347,261 304,304 256,352 232,421 232,512 232,635 267,731 336,800 395,859 464,888 544,888 576,888 613,877 656,856 L 656,1120 C 533,1109 416,1099 304,1088 L 272,1216 C 432,1221 560,1229 656,1240 L 640,1592 800,1584 Z M 544,776 C 496,776 453,757 416,720 368,672 344,603 344,512 344,464 357,427 384,400 405,379 432,368 464,368 507,368 555,395 608,448 645,485 664,549 664,640 664,683 653,715 632,736 605,763 576,776 544,776 Z M 1496,1240 C 1645,1155 1789,1037 1928,888 L 1832,784 C 1688,939 1547,1051 1408,1120 L 1496,1240 Z"
   id="glyph189" />
   <glyph
   unicode="の"
   horiz-adv-x="1615"
   d="M 960,1272 C 800,1235 667,1163 560,1056 427,923 360,763 360,576 360,437 400,328 480,248 507,221 539,208 576,208 603,208 629,221 656,248 720,312 781,443 840,640 904,853 944,1064 960,1272 Z M 1120,1400 C 1339,1400 1509,1339 1632,1216 1760,1088 1824,917 1824,704 1824,512 1757,349 1624,216 1517,109 1381,27 1216,-32 L 1112,80 C 1283,133 1419,211 1520,312 1632,424 1688,555 1688,704 1688,880 1635,1021 1528,1128 1421,1235 1269,1285 1072,1280 L 1112,1264 C 1133,1253 1128,1237 1096,1216 1069,1013 1024,813 960,616 880,371 805,213 736,144 688,96 632,72 568,72 504,72 443,101 384,160 283,261 232,405 232,592 232,800 307,979 456,1128 637,1309 859,1400 1120,1400 Z"
   id="glyph191" />
   <glyph
   unicode="ね"
   horiz-adv-x="1826"
   d="M 736,1576 C 757,1565 752,1549 720,1528 L 696,1216 792,1144 792,1128 680,968 672,888 C 725,931 789,979 864,1032 1029,1149 1187,1208 1336,1208 1453,1208 1544,1176 1608,1112 1677,1043 1712,896 1712,672 1712,528 1701,413 1680,328 1771,275 1856,216 1936,152 L 1848,32 C 1784,96 1717,149 1648,192 1627,128 1603,83 1576,56 1517,-3 1424,-32 1296,-32 1184,-32 1099,-3 1040,56 997,99 976,152 976,216 976,275 997,325 1040,368 1093,421 1173,448 1280,448 1371,448 1464,427 1560,384 1576,437 1584,533 1584,672 1584,848 1560,960 1512,1008 1464,1056 1395,1080 1304,1080 1203,1080 1069,1027 904,920 813,861 733,795 664,720 L 664,-104 536,-104 536,584 240,216 120,304 C 296,475 440,651 552,832 L 560,1016 200,928 184,1064 568,1136 584,1584 736,1576 Z M 1272,336 C 1203,336 1152,320 1120,288 1099,267 1088,243 1088,216 1088,184 1099,157 1120,136 1157,99 1213,80 1288,80 1379,80 1443,99 1480,136 1507,163 1525,200 1536,248 1451,307 1363,336 1272,336 Z"
   id="glyph193" />
   <glyph
   unicode="じ"
   horiz-adv-x="1218"
   d="M 784,1504 C 805,1493 800,1477 768,1456 757,1179 752,837 752,432 752,299 776,208 824,160 883,101 960,72 1056,72 1264,72 1488,195 1728,440 L 1816,328 C 1549,67 1299,-64 1064,-64 915,-64 800,-24 720,56 651,125 616,256 616,448 616,800 619,1155 624,1512 L 784,1504 Z M 1264,1376 C 1365,1291 1445,1211 1504,1136 L 1416,1056 C 1357,1136 1280,1219 1184,1304 L 1264,1376 Z M 1448,1520 C 1539,1451 1619,1373 1688,1288 L 1600,1208 C 1531,1299 1453,1379 1368,1448 L 1448,1520 Z"
   id="glyph195" />
   <glyph
   unicode="し"
   horiz-adv-x="1218"
   d="M 784,1504 C 805,1493 800,1477 768,1456 757,1179 752,837 752,432 752,299 776,208 824,160 883,101 960,72 1056,72 1264,72 1488,195 1728,440 L 1816,328 C 1549,67 1299,-64 1064,-64 915,-64 800,-24 720,56 651,125 616,256 616,448 616,800 619,1155 624,1512 L 784,1504 Z"
   id="glyph197" />
   <glyph
   unicode="こ"
   horiz-adv-x="1324"
   d="M 552,600 C 536,515 528,443 528,384 528,336 541,299 568,272 611,229 752,208 992,208 1248,208 1475,219 1672,240 L 1680,88 C 1461,77 1232,72 992,72 699,72 517,107 448,176 411,213 392,275 392,360 392,408 400,493 416,616 L 552,600 Z M 1528,1344 L 1528,1216 512,1216 512,1344 1528,1344 Z"
   id="glyph199" />
   <glyph
   unicode="S"
   horiz-adv-x="822"
   d="M 264,1472 C 333,1541 424,1576 536,1576 637,1576 725,1539 800,1464 859,1405 893,1301 904,1152 L 768,1152 C 763,1264 739,1341 696,1384 648,1432 595,1456 536,1456 456,1456 397,1437 360,1400 312,1352 288,1285 288,1200 288,1115 317,1045 376,992 440,933 496,893 544,872 661,819 749,763 808,704 867,645 896,552 896,424 896,296 859,195 784,120 715,51 619,16 496,16 384,16 291,53 216,128 136,208 99,336 104,512 L 248,512 C 237,368 261,267 320,208 368,160 429,136 504,136 579,136 643,163 696,216 744,264 768,333 768,424 768,509 747,573 704,616 651,669 576,717 480,760 395,797 323,845 264,904 195,973 160,1072 160,1200 160,1312 195,1403 264,1472 Z"
   id="glyph201" />
   <glyph
   unicode="R"
   horiz-adv-x="848"
   d="M 480,1576 C 624,1576 731,1541 800,1472 880,1392 920,1285 920,1152 920,1019 880,912 800,832 747,779 672,747 576,736 L 952,16 784,16 440,728 240,728 240,16 112,16 112,1576 480,1576 Z M 240,1456 L 240,848 480,848 C 581,848 656,872 704,920 763,979 792,1056 792,1152 792,1248 763,1325 704,1384 656,1432 581,1456 480,1456 L 240,1456 Z"
   id="glyph203" />
   <glyph
   unicode="Q"
   horiz-adv-x="848"
   d="M 280,1480 C 344,1544 421,1576 512,1576 597,1576 672,1544 736,1480 859,1357 920,1131 920,800 920,576 888,389 824,240 867,181 901,125 928,72 L 824,-16 C 803,37 779,85 752,128 688,53 608,16 512,16 421,16 344,48 280,112 157,235 96,464 96,800 96,1131 157,1357 280,1480 Z M 640,1400 C 603,1437 560,1456 512,1456 459,1456 413,1437 376,1400 275,1299 224,1099 224,800 224,496 275,293 376,192 413,155 459,136 512,136 576,136 629,168 672,232 619,317 557,392 488,456 L 576,536 C 640,477 693,419 736,360 773,456 792,603 792,800 792,1099 741,1299 640,1400 Z"
   id="glyph205" />
  </font>
</defs>
</svg>
